Aktuálny čas je Pia 19. Júl 2019 10:44:49

Všetky časy sú v GMT

Inzercia zadarmo

Posledné témy




Vytvoriť novú tému Odpovedať na tému  [ Príspevok: 1 ] 
Autor Správa
 Predmet príspevku: Neuvěřitelný Hulk / Incredible Hulk, The (2008)
PoslaťNapísal: Pia 06. Júl 2012 18:31:54 
Offline
Generál
Generál

Registrovaný: Uto 22. Nov 2011 17:07:58
Príspevky: 1617
Neuvěřitelný Hulk / Incredible Hulk, The (2008) DVDRip CZ 5.1

Obrázok

Obrázok

Obrázok

Kód:
http://www.csfd.cz/film/179421-neuveritelny-hulk/


Obrázok

Citácia:
Akční / Sci-Fi / Thriller

USA, 2008, 112 min
Režie: Louis Leterrier
Hudba: Craig Armstrong
Hrají: Edward Norton, Liv Tyler, Tim Roth, William Hurt, Tim Blake Nelson, Ty Burrell, Christina Cabot, Peter Mensah, Lou Ferrigno, Greg Bryk, Martin Starr, Tamsen McDonough, Genelle Williams, Lenka Matuska, Kristina Pesic, Robert Downey Jr., Stan Lee, Michael Kenneth Williams

dej filmu :

Když se naštve, nebudete ho mít rádi. V občanském životě je Bruce Banner sympatický vědec s křehkou duší, ve stavu zuřivosti šílené monstrum, které bezmyšlenkovitě ničí vše kolem sebe. Komiksový svět ho zná pod přezdívkou Hulk. Po pěti letech se vrací na filmové plátno a fakt, že půjde o mimořádný zážitek, potvrzuje jeho přívlastek NEUVĚŘITELNÝ.

Zničit ďábla v sobě samém je hlavní vědecký cíl Bruce Bannera (Edward Norton), jehož impozantní proměny nálad způsobilo mimořádně silné ozáření. Bruce se ve svých mimořádných schopnostech nevyžívá, naopak jimi trpí, protože přežívá mimo civilizaci, dobrovolně izolovaný od své životní lásky Betty Rossové (Liv Tyler) a jejího otce, armádního generála Thaddeuse Rosse (William Hurt), který by rád využil Bruceovy schopnosti ve prospěch amerických ozbrojených sil. Zatímco Bruce se snaží co nejvíc zůstat v klidu, na obzoru se objeví nepřítel s podobnými schopnostmi, který naopak nevynechá jedinou příležitost k tomu, aby se z chlapa z masa a kostí (Tim Roth) přeměnil v destruktivní kreaturu zvanou Abomination. Proti jejímu řádění nepomáhají žádné konvenční zbraně, a tak musí Bruce čelit zásadní výzvě – dobrovolně se zříct vlastního slušného já, vzteky zezelenat a rozdat si s Abomination jako chlap s chlapem, respektive jako monstrum s monstrem.

Zatímco předchozí Hulk Anga Leeho pojednával spíš o psychologickém souboji uvnitř samotného Bruce, volba Louise Letteriera, režiséra obou dílů akčního Kurýra, coby jeho nástupce, by měla být dobrou zprávou pro všechny, kdo od Hulka žádají pořádnou akci. Naopak obsazení Edwarda Nortona, jednoho z nejlepších herců současnosti, do role Bruce Bannera, nasvědčuje tomu, že nudit se diváci nebudou ani ve scénách „Bruce s lidskou tváří“. Pro samotného Nortona byla role trpícího vědce velkou výzvou, protože Hulk patří mezi jeho nejoblíbenější komiksové hrdiny. „Asi každý kluk by chtěl být aspoň chvíli v jeho kůži. Dobrovolným vyvrhelem, který v sobě skrývá obrovskou sílu a ta vyplave na povrch, když ho někdo naštve,“ říká Edward Norton.

Producentka filmu Gale Anne Hurd tvrdí, že za svou popularitu vděčí Hulk především tomu, že na rozdíl od ostatních komiksových reků je vlastně hrdinou proti své vůli. „Svůj potenciál sice naplno využívá, ale na druhou stranu ho každá proměna v Hulka neskutečně trápí. Není to hrdina, který by si oblékl kostým a vyrazil zachraňovat svět. On vlastně nemá příliš na vybranou, jestli bude nebo nebude Neuvěřitelným Hulkem,“ uzavírá producentka


Obrázok

Kód:
D:\hulk 2\NEUVERITELNY HULK-2008-CZ-jason24.avi
   General
      Complete name : D:\hulk 2\NEUVERITELNY HULK-2008-CZ-jason24.avi
      Format : AVI
      Format/Info : Audio Video Interleave
      File size : 1.37 GiB
      Duration : 1h 47mn
      Overall bit rate : 1 819 Kbps
      Writing application : VirtualDubMod 1.5.4.1 (build 2178/release)
      Writing library : VirtualDubMod build 2178/release

   Video #0
      ID : 0
      Format : MPEG-4 Visual
      Format profile : AdvancedSimple@L5
      Format settings, BVOP : Yes
      Format settings, QPel : No
      Format settings, GMC : No warppoints
      Format settings, Matrix : Custom
      Codec ID : XVID
      Codec ID/Hint : XviD
      Duration : 1h 47mn
      Bit rate : 1 428 Kbps
      Width : 640 pixels
      Height : 272 pixels
      Display aspect ratio : 2.35:1
      Frame rate : 25.000 fps
      Resolution : 24 bits
      Colorimetry : 4:2:0
      Scan type : Progressive
      Bits/(Pixel*Frame) : 0.328
      Stream size : 1.07 GiB (79%)
      Writing library : XviD 1.2.0.dev47 (UTC 2006-11-01)

   Audio #1
      ID : 1
      Format : AC-3
      Format/Info : Audio Coding 3
      Codec ID : 2000
      Duration : 1h 47mn
      Bit rate mode : Constant
      Bit rate : 384 Kbps
      Channel(s) : 6 channels
      Channel positions : Front: L C R, Surround: L R, LFE
      Sampling rate : 48.0 KHz
      Stream size : 296 MiB (21%)
      Alignment : Split accross interleaves
      Interleave, duration : 96 ms (2.40 video frames)
      Interleave, preload duration : 96 ms
      Language : Czech


Obrázok


Obrázok


Kód:
http://download.hellshare.sk/neuveritelny-hulk-2008-cz-jason24-avi/8042641/


Obrázok

BEZ HESLA!



Obrázok



Citácia:
Moje uploady sú VŽDY bez hesla!!
Ak sa vyskytne nejaky problem,kludne ma kontaktujte.
Uploadujem len na Hellshare,
Dakujem,poteší...

Stazeni / Download

Kod:


Hore
 Profil Poslať súkromnú správu  
 
Zobraziť príspevky z predchádzajúceho:  Zoradiť podľa  
Vytvoriť novú tému Odpovedať na tému  [ Príspevok: 1 ] 

Všetky časy sú v GMT


Kto je on-line

Registrovaní užívatelia: Bing [Bot], Google [Bot]


Nemôžete zakladať nové témy v tomto fóre
Nemôžete odpovedať na témy v tomto fóre
Nemôžete upravovať svoje príspevky v tomto fóre
Nemôžete mazať svoje príspevky v tomto fóre

Skočiť na:  
cron
Powered by phpBB © 2000, 2002, 2005, 2007 phpBB Group Kontakt: info@warezforum.sk
Zkuste online filmy zadarmo, nové filmy online. Stahujte data a filmy bez omezení! pro všechny. Nový internetový portál Filmy pro každého Vás uchvátí! Stahujte neomezeně filmy ke stažení zdarma a buďte In.