Aktuálny čas je Pia 19. Júl 2019 9:55:05

Všetky časy sú v GMT

Inzercia zadarmo

Posledné témy




Vytvoriť novú tému Odpovedať na tému  [ Príspevok: 1 ] 
Autor Správa
 Predmet príspevku: Paul / Paul (2011)
PoslaťNapísal: Ned 08. Apr 2012 20:32:30 
Offline
Generál
Generál

Registrovaný: Uto 22. Nov 2011 17:07:58
Príspevky: 1617
Paul / Paul (2011) BRRip CZ

Obrázok
CSFD
Kód:
http://www.csfd.cz/film/250239-paul/

Citácia:
INFO

Komedie / Sci-Fi / Dobrodružný

USA / Velká Británie, 2011, 104 min
Režie: Greg Mottola
Hudba: David Arnold
Hrají: Simon Pegg, Nick Frost, Seth Rogen, Jason Bateman, Bill Hader, Jane Lynch, Kristen Wiig, Jeffrey Tambor, Blythe Danner, David Koechner, John Carroll Lynch, Sigourney Weaver, Mia Stallard, Joe Lo Truglio

DEJ FILMU

Graeme (Simon Pegg) a Clive (Nick Frost) přijeli do Ameriky na dovolenou, během níž chtěli procestovat všechna místa proslulá údajným výskytem UFO. Cesta probíhala podle plánu, dokud nenarazili na titulního hrdinu. Byť jako všichni správní ufologové v existenci mimozemšťanů bezmezně věřili, Paul je poněkud zaskočil. Přestože vypadá jako typický „emzák“, chová se jako zastydlý puberťák, tedy úplně stejně jako Graeme a Clive, jen s kapkou americké suverénnosti navíc. Po počátečním oťukávání zjistí, že si navzájem docela rozumějí, takže Graeme a Clive Paulovi nabídnou, že ho odvezou na místo „kdesi mezi lesy“, kam si pro něj přiletí jeho soukmenovci. Kamarádskou idylu bohužel vážně narušují dvě externí hrozby. Když vám zdrhne mimozemšťan, tak se ho snažíte dostat za každou cenu, což je úkolem agenta tajné vládní agentury (Jason Bateman), který má k ruce dva neschopné poskoky a zpruzenou šéfku na telefonu. Nebezpečí číslo dvě pak představuje nerudný náboženský fanatik, jemuž naše trojka nedopatřením unesla celkem rajcovní dceru (Kristen Wiig), a on se ji snaží získat zpět s pomocí nabité kulovnice.

Citácia:
DISC INFO

D:\FILMY\---===DiVX-CZ,SK===---\KOMEDIE\PAUL-2011-CZ-jason24\PAUL-2011-CZ-jason24.avi
General
Complete name : D:\FILMY\---===DiVX-CZ,SK===---\KOMEDIE\PAUL-2011-CZ-jason24\PAUL-2011-CZ-jason24.avi
Format : AVI
Format/Info : Audio Video Interleave
File size : 1.95 GiB
Duration : 1h 43mn
Overall bit rate : 2 695 Kbps
Writing application : VirtualDubMod 1.5.10.2 (build 2540/release)
Writing library : VirtualDubMod build 2540/release

Video #0
ID : 0
Format : MPEG-4 Visual
Format profile : AdvancedSimple@L5
Format settings, BVOP : Yes
Format settings, QPel : No
Format settings, GMC : No warppoints
Format settings, Matrix : Custom
Codec ID : XVID
Codec ID/Hint : XviD
Duration : 1h 43mn
Bit rate : 2 045 Kbps
Width : 720 pixels
Height : 304 pixels
Display aspect ratio : 2.35:1
Frame rate : 23.976 fps
Resolution : 24 bits
Colorimetry : 4:2:0
Scan type : Progressive
Bits/(Pixel*Frame) : 0.390
Stream size : 1.48 GiB (76%)
Writing library : XviD 58

Audio #1
ID : 1
Format : AC-3
Format/Info : Audio Coding 3
Codec ID : 2000
Duration : 1h 43mn
Bit rate mode : Constant
Bit rate : 640 Kbps
Channel(s) : 6 channels
Language : Czech
Channel positions : Front: L C R, Surround: L R, LFE
Sampling rate : 48.0 KHz
Stream size : 475 MiB (24%)
Alignment : Split accross interleaves
Interleave, duration : 42 ms (1.00 video frame)
Interleave, preload duration : 500 ms

Citácia:
download

Kód:
http://download.hellshare.sk/paul-2011-cz-jason24-part1-rar/6600862/
http://download.hellshare.sk/paul-2011-cz-jason24-part2-rar/6600878/

Citácia:
bez hesla

Stazeni / Download

Kod:


Hore
 Profil Poslať súkromnú správu  
 
Zobraziť príspevky z predchádzajúceho:  Zoradiť podľa  
Vytvoriť novú tému Odpovedať na tému  [ Príspevok: 1 ] 

Všetky časy sú v GMT


Kto je on-line

Registrovaní užívatelia: Bing [Bot], Google [Bot]


Nemôžete zakladať nové témy v tomto fóre
Nemôžete odpovedať na témy v tomto fóre
Nemôžete upravovať svoje príspevky v tomto fóre
Nemôžete mazať svoje príspevky v tomto fóre

Skočiť na:  
cron
Powered by phpBB © 2000, 2002, 2005, 2007 phpBB Group Kontakt: info@warezforum.sk
Zkuste online filmy zadarmo, nové filmy online. Stahujte data a filmy bez omezení! pro všechny. Nový internetový portál Filmy pro každého Vás uchvátí! Stahujte neomezeně filmy ke stažení zdarma a buďte In.